#TITLE:It's Only a Fairy Tale;
#SUBTITLE:- Mai-HiME;
#ARTIST:Miyamura Yuuko;
#TITLETRANSLIT:;
#SUBTITLETRANSLIT:;
#ARTISTTRANSLIT:;
#CREDIT:Kreton;
#BANNER:It's Only The Fairy Tale.png;
#BACKGROUND:It's Only The Fairy Tale-bg.png;
#LYRICSPATH:It's Only The Fairy Tale.lrc;
#CDTITLE:CDTitle.png;
#MUSIC:It's Only The Fairy Tale.ogg;
#OFFSET:0.400;
#SAMPLESTART:54.180;
#SAMPLELENGTH:11.960;
#SELECTABLE:YES;
#BPMS:0.000=124.440,226.000=110.000,227.000=90.000,228.000=75.000;
#STOPS:;
#BGCHANGES:;
// cache tags:
#FIRSTBEAT:4.000;
#LASTBEAT:228.375;
#SONGFILENAME:songs/Otaku's Dream 3rd Anime Mix/[Kreton] It's Only the Fairy Tale - Mai-HiME/It's Only The Fairy Tale.sm;
#HASMUSIC:1;
#HASBANNER:1;
#MUSICLENGTH:114.991;
// end cache tags

//---------------dance-single - Kreton----------------
#NOTES:
     dance-single:
     Kreton:
     Medium:
     6:
     0.425,0.446,0.000,0.348,0.800,302.000,0.000,40.000,0.000,0.000:
0000
0000
0000
0000
,
1000
0000
0100
0000
0000
0000
0100
0000
0010
0000
0000
0000
,
0001
0000
0010
0000
0000
0000
0100
0000
0010
0000
0000
0000
,
1000
0000
0000
0000
0001
0000
0100
0000
0010
0000
0010
0000
,
1000
0000
0000
0000
0010
0000
0100
0000
0000
0000
0001
0000
,
1000
0000
0000
0010
0001
0000
1000
0000
0100
0000
0010
0000
,
0001
0000
1000
0000
0001
0000
1000
0001
0010
0100
1000
0000
,
0001
0000
0000
0000
0100
0000
0001
0000
0010
0000
0001
0000
,
1000
0000
0000
0000
0010
0000
1000
0000
0000
0000
0001
0000
,
0100
0000
0000
0010
0100
0000
1000
0000
0001
0000
0100
0000
,
0010
1000
0100
0010
0100
1000
0100
0000
0000
0000
1000
0000
,
0100
0010
0100
0000
0001
0000
0100
0000
0010
0000
1000
0000
,
0010
0000
0100
0000
0001
0000
0010
0000
0000
0000
1000
0000
,
0100
0010
0100
0000
0001
0000
1000
0000
0100
0000
0001
0000
,
0100
0000
0001
0010
0001
0010
0001
0000
0000
0000
1000
0000
,
0001
0010
0001
0000
1000
0000
0001
0000
0100
0000
0010
0000
,
1000
0000
0001
0000
0100
0000
0001
0000
0000
0000
1000
0000
,
0100
0000
0010
0000
0001
0000
0100
0000
1000
0000
0001
0000
,
0010
0000
1000
0100
1000
0100
1000
0000
1000
0100
1000
0000
,
0001
0000
0010
0100
0010
0100
0010
0000
1000
0000
0001
0000
,
1000
0000
0001
0000
1000
0000
0002
0000
0000
0003
1000
0000
,
0010
0000
1000
0000
0010
0000
0200
0000
0000
0300
0001
0000
,
0100
0000
0000
0000
1000
0000
0001
0000
0000
0001
1000
0000
,
0010
0000
0100
0000
0001
0000
0100
0000
1000
0000
0010
0000
,
0001
0000
0010
0100
0010
0100
2000
0000
0000
3000
0010
0000
,
0100
0000
0001
0000
1000
0000
0010
0000
0000
0010
1000
0000
,
0200
0000
0000
0300
0001
0000
1000
0000
0100
0000
0010
0000
,
0100
0000
1000
0000
0010
0000
0001
0000
0000
0000
1000
0000
,
0010
0000
0000
0000
1000
0000
0100
0010
0100
0000
0001
0000
,
1000
0000
0010
0000
0100
0000
0001
0000
0010
0000
0100
0000
,
1000
0000
0000
0000
0001
0000
0010
0100
0010
0000
1000
0000
,
0001
0000
0100
0000
0001
0000
0010
0000
0000
0000
1000
0000
,
0001
0000
0000
0000
1000
0000
0001
0010
0001
0000
1000
0000
,
0010
0000
0100
0000
0001
0000
1000
0000
0100
0000
0010
0000
,
0001
0000
0000
0000
1000
0000
0100
0000
0001
0000
0100
0000
,
0010
0000
0001
0000
1000
0000
0020
0000
0000
0000
0000
2030
,
0000
0000
0000
0000
0000
0000
0000
0000
0001
0010
0001
3000
,
0001
0000
0001
0000
2000
0000
3020
0000
0000
0000
0030
0000
,
0002
0000
2003
0000
3002
0000
0203
0000
0320
0000
0030
0000
,
0200
0000
0000
0000
0000
0000
0000
0300
0002
0000
2003
0000
,
3020
0000
2030
0000
3002
0000
2003
0000
0000
0000
0000
0000
,
3002
0000
0000
0000
2003
0000
3020
0000
0000
0000
2030
0000
,
0000
0000
3020
0000
0230
0000
0302
0000
2003
0000
0000
3002
,
0203
0000
0000
0000
0000
0000
0000
0300
0002
0000
0203
0000
,
0320
0000
2030
0000
3002
0000
0203
0000
0000
0000
0000
0300
,
0020
0000
0000
0030
1000
0000
0100
0010
0100
0000
0001
0000
,
0100
0000
0010
0000
1000
0000
0100
0000
0001
0000
0010
0000
,
1000
0000
0000
0000
0001
0000
0010
0100
0010
0000
1000
0000
,
0100
0000
0001
0000
0100
0000
1000
0000
0001
0000
0100
0000
,
0010
0000
0000
0000
1000
0000
0010
0100
0010
0000
0001
0000
,
0100
0000
1000
0000
0001
0000
0100
0000
0010
0000
1000
0000
,
0001
0000
0000
0000
1000
0000
0100
0000
0010
0000
0001
0000
,
0100
0000
0010
0000
1000
0000
0002
0000
0000
0000
0000
2000
,
0003
0000
0000
0000
0000
0000
0000
3000
0000
0000
0001
0010
,
0001
0000
0001
0000
0001
0000
0001
0000
0010
0000
0100
0000
,
1000
0000
0100
0000
0010
0000
0002
0000
0000
0000
0000
0000
,
0000
0000
0000
0000
0000
0000
0000
0000
0000
0000
0000
0000
0000
0000
0000
0000
0000
0000
0000
0000
0000
0000
0000
0000
0000
0000
0000
0000
0000
0000
0000
0000
0000
0000
0000
0000
0000
0000
0000
0000
0000
0000
0000
0000
0000
0000
0000
0000
0003
0000
0000
0000
0000
0000
0000
0000
0000
0000
0000
0000
0000
0000
0000
0000
0000
0000
0000
0000
0000
0000
0000
0000
0000
0000
0000
0000
0000
0000
0000
0000
0000
0000
0000
0000
0000
0000
0000
0000
0000
0000
0000
0000
0000
0000
0000
0000
1000
0000
0000
0000
0000
0000
0000
0000
0000
0000
0000
0000
0000
0000
0000
0000
0000
0000
0000
0000
0000
0000
0000
0000
0000
0000
0000
0000
0000
0000
0000
0000
0001
0000
0000
0000
0000
0000
0000
0000
0000
0000
0000
0000
0000
0000
0000
0000
1000
0000
0000
0000
0000
0000
0000
0000
0000
0000
0000
0000
0000
0000
0000
0000
0000
0000
0001
0000
0000
0000
0000
0000
0000
0000
0000
0000
0000
0000
0000
0000
0000
0000
0000
0000
0000
0000
0000
0000
0000
0000
0000
0000
0000
0000
0000
0000
,
0100
0000
0000
0000
;

//---------------dance-single - Kreton----------------
#NOTES:
     dance-single:
     Kreton:
     Hard:
     7:
     0.535,0.497,0.452,0.991,0.687,265.000,52.000,114.000,0.000,0.000:
0000
0000
0000
0000
,
1000
0000
2020
3030
0000
0000
0001
0000
0022
0033
0000
0000
,
1000
0000
2200
3300
0000
0000
0001
0000
0202
0303
0000
0000
,
2000
0000
3000
0000
0001
0000
0010
0000
0100
0000
0001
0000
,
2000
3000
0000
0000
1100
0000
0022
0033
0000
0000
0100
0000
,
0020
0030
0000
0000
1000
0000
0100
0000
1000
0000
0010
0000
,
2000
0000
3000
0000
0000
0000
2002
3003
0000
0000
0000
0000
,
0002
0000
0003
0000
1000
0000
0100
0000
0010
0000
1000
0000
,
0002
0003
0000
0000
0011
0000
2200
3300
0000
0000
0010
0000
,
0100
0000
0001
0000
0010
0000
0001
0000
0100
0000
0001
0000
,
2000
0000
3000
0000
0000
0000
2002
3003
0000
0000
0010
0000
,
0100
0010
1000
0000
0010
0000
0001
0000
0010
0000
0100
0000
,
0010
0000
1000
0000
0010
0000
0002
0003
0000
0000
0100
0000
,
0010
0100
0001
0000
0100
0000
1000
0000
0100
0000
0010
0000
,
2000
0000
3000
0000
0000
0000
2002
3003
0000
0000
0010
0000
,
1000
0001
1000
0000
0100
0000
0010
0000
0100
0000
1000
0000
,
0010
0000
0100
0000
0001
0000
2000
3000
0000
0000
0001
0000
,
0010
0000
0001
0000
0100
0000
0010
0000
0100
0000
0001
0000
,
2000
3000
0000
0000
0000
0000
0100
0000
2200
3300
0000
0000
,
0001
0000
0202
0303
0000
0000
0010
0000
2020
3030
0000
0000
,
0001
0000
0022
0033
0000
0000
2000
3000
0000
0000
1100
0000
,
1100
0000
0010
0000
0001
0000
0200
0300
0000
0000
0101
0000
,
0202
0303
0000
0000
1000
0000
0002
0003
0000
0000
1000
0000
,
0100
0000
0010
0000
0001
0000
0010
0000
0200
0300
0000
0000
,
2002
3003
0000
0000
0000
0000
0002
0003
0000
0000
0011
0000
,
0011
0000
0100
0000
1000
0000
0020
0030
0000
0000
1010
0000
,
2020
3030
0000
0000
0001
0000
1000
0000
0001
0000
0010
0000
,
0100
0000
1000
0000
0100
0000
0010
0000
0000
0000
0001
0000
,
2002
3003
0000
0000
1000
0000
0001
1000
0010
0000
0100
0000
,
0001
0000
1000
0000
1100
0000
0101
0000
1000
0000
0001
0000
,
2002
3003
0000
0000
0001
0000
1000
0001
0100
0000
0010
0000
,
1000
0000
0001
0000
0011
0000
2020
3030
0000
0000
0001
0000
,
0220
0330
0000
0000
0010
0000
0100
0010
1000
0000
0001
0000
,
0100
0000
0010
0000
1010
0000
0101
0000
0010
0000
0100
0000
,
0220
0330
0000
0000
0100
0000
0010
0000
1000
0000
0001
0000
,
0010
0000
0100
0000
0011
0000
2200
0000
3300
0000
0000
0010
,
0200
0000
0300
0000
0000
0000
1000
0000
0002
0003
0000
0000
,
2002
3003
0000
0000
2000
0000
3020
0000
0000
0000
0030
0000
,
0200
0000
0302
0000
2003
0000
3200
0000
0320
0000
0032
0000
,
0203
0000
0000
0000
0000
0000
0000
0300
0002
0000
2003
0000
,
3020
0000
0230
0000
0302
0000
2003
0000
0000
0000
0000
0000
,
0002
0000
3000
0000
2003
0000
3020
0000
0000
0000
0030
0000
,
2000
0000
3020
0000
0230
0000
0302
0000
2003
0000
0002
3000
,
0200
0000
0000
0003
0000
0000
0000
0300
0020
0000
0230
0000
,
0302
0000
2003
0000
3002
0000
0023
0000
0000
0000
0000
0000
,
0200
0000
0030
0300
1000
0000
0001
1000
0010
0000
0100
0000
,
0001
0000
1000
0000
1100
0000
0101
0000
1000
0000
0001
0000
,
2002
3003
0000
0000
0001
0000
1000
0001
0100
0000
0010
0000
,
1000
0000
0001
0000
0011
0000
2020
3030
0000
0000
0001
0000
,
0220
0330
0000
0000
0010
0000
0100
0010
1000
0000
0001
0000
,
0100
0000
0010
0000
1010
0000
0101
0000
0010
0000
0100
0000
,
0220
0330
0000
0000
0100
0000
0010
0000
1000
0000
0001
0000
,
0010
0000
0100
0000
0011
0000
2200
0000
3300
0000
0000
0010
,
0200
0000
0300
0000
0000
0000
0101
0000
2200
0300
0000
0000
,
3002
0000
0000
0000
1000
0000
0100
0000
1000
0000
0010
0000
,
1000
0000
0100
0000
2000
0000
0000
0000
0000
0000
0000
0000
,
0000
0000
0000
0000
0000
0000
0000
0000
0000
0000
0000
0000
0000
0000
0000
0000
0000
0000
0000
0000
0000
0000
0000
0000
0000
0000
0000
0000
0000
0000
0000
0000
0000
0000
0000
0000
0000
0000
0000
0000
0000
0000
0000
0000
0000
0000
0000
0000
0000
0000
0000
0000
0000
0000
0000
0000
0000
0000
0000
0000
0000
0000
0000
0000
0000
0000
0000
0000
0000
0000
0000
0000
0000
0000
0000
0000
0000
0000
0000
0000
0000
0000
0000
0000
0000
0000
0000
0000
0000
0000
0000
0000
0000
0000
0000
0000
3003
0000
0000
0000
0000
0000
0000
0000
0000
0000
0000
0000
0000
0000
0000
0000
0100
0000
0000
0000
0000
0000
0000
0000
0000
0000
0000
0000
0000
0000
0000
0000
0010
0000
0000
0000
0000
0000
0000
0000
0000
0000
0000
0000
0000
0000
0000
0000
0000
0000
0000
0000
0000
0000
0000
0000
0000
0000
0000
0000
0000
0000
0000
0000
0110
0000
0000
0000
0000
0000
0000
0000
0000
0000
0000
0000
0000
0000
0000
0000
0000
0000
0000
0000
0000
0000
0000
0000
0000
0000
2002
0000
0000
0000
0000
0000
,
0000
0000
0000
3003
0000
0000
0000
0000
0000
0000
0000
0000
0000
0000
0000
0000
0000
0000
0000
0000
0000
0000
0000
0000
0000
0000
0000
0000
0000
0000
0000
0000
;

//---------------dance-single - Kreton----------------
#NOTES:
     dance-single:
     Kreton:
     Challenge:
     9:
     0.707,0.869,0.591,1.000,1.000,379.000,68.000,122.000,0.000,0.000:
0000
0000
0000
0000
,
1000
0010
2020
3030
0000
0000
0001
0010
0022
0033
0000
0000
,
1000
0100
2200
3300
0000
0000
0001
0100
0202
0303
0000
0000
,
2000
0000
3000
0010
0001
0000
0010
0000
0100
0000
0001
0000
,
2000
3000
0000
0100
1100
0010
0022
0033
0000
0000
0100
0001
,
0020
0030
0000
0000
1000
0001
0100
0001
1000
0000
0010
0000
,
2000
0000
3000
0000
0100
0010
2002
3003
0000
0000
0000
0000
,
0002
0000
0003
0000
1000
0001
0100
0001
0010
0000
0001
0000
,
2000
3000
0000
0010
0011
0100
2200
3300
0000
0000
0010
0001
,
0100
0000
0001
1000
0010
0000
0100
0000
0010
0000
1000
0001
,
2000
0000
3000
0000
0000
0110
2002
3003
0000
0000
0010
0000
,
0100
0010
1000
0010
0100
0010
1000
0000
0010
0000
0100
0000
,
0010
0001
1000
0001
0010
0000
0002
0003
0000
0000
0100
0000
,
0010
0100
0001
1000
0100
0000
1000
0000
0100
0010
0010
0001
,
2000
0000
3000
0000
0000
0110
2002
3003
0000
0000
0010
0000
,
1000
0100
1000
0010
1000
0001
1000
0010
1000
0100
1000
0010
,
1000
0001
1000
0010
1000
0100
2000
3000
0000
0000
0001
0000
,
0010
0010
0001
0000
0100
0000
0010
0010
0100
0000
0001
1000
,
2000
3000
0000
0100
0010
0000
0100
1000
2200
3300
2002
3003
,
0001
0100
0202
0303
2002
3003
0010
1000
2020
3030
2002
3003
,
0001
0010
0022
0033
2002
3003
2000
3000
0000
0000
1100
0011
,
1100
0000
0010
0000
0001
0001
0200
0300
0000
0000
0101
1010
,
0202
0303
0000
0000
1000
0001
0002
0003
0000
0000
1000
0100
,
0100
0000
0010
0000
0001
0010
0010
0000
0200
0300
0000
0000
,
2002
3003
0000
0000
0000
0000
0002
0003
0000
0000
0011
1100
,
0011
0000
0100
0000
1000
0010
0020
0030
0000
0000
1010
0101
,
2020
3030
0000
0000
0001
1000
1000
0000
0001
0000
0010
0100
,
0100
0000
1000
0000
0100
0010
0010
0000
0000
0000
0001
1000
,
2002
3003
0000
0000
1000
0001
0001
1000
0010
0000
0100
0001
,
0001
0000
1000
0000
1100
0100
0101
0000
1000
0000
0001
1000
,
2002
3003
0000
0000
0001
1000
1000
0001
0100
0000
0010
1000
,
1000
0000
0001
0000
0011
0010
2020
3030
0000
0100
0010
0000
,
0220
0330
0000
0000
0010
0100
0100
0010
1000
0000
0001
0100
,
0100
0000
0010
0000
1010
0010
0101
0000
0010
0000
0100
0010
,
0220
0330
0000
0000
0100
0010
0010
0000
1000
0000
0001
0010
,
0010
0000
0100
0000
0011
0110
2200
0000
3300
0000
0100
0010
,
0200
0000
0300
0000
0000
0000
1000
1000
0002
0003
0000
0110
,
2002
3003
1001
0000
2000
0010
3020
0000
0000
0000
0030
0100
,
0200
0000
0302
0000
2003
0000
3200
0000
0320
0001
0032
0000
,
0203
0000
0000
0001
1000
0000
0001
0300
0002
1000
2003
0010
,
3020
0000
0230
0000
0302
1000
2003
0000
0000
0000
0000
0001
,
0002
0000
3000
0000
2003
0000
3020
0000
0000
0000
1030
0001
,
2000
0000
3020
0000
0230
0000
0302
1000
2003
0000
0002
3000
,
0200
0000
0000
0003
0001
0000
1000
0300
0020
0000
0230
0000
,
0302
1000
2003
0000
3002
0010
0023
0000
0001
0000
1000
0000
,
0200
0000
0030
0300
1000
0000
0001
1000
0010
0000
0100
0000
,
0001
0000
1000
0000
1100
0100
0101
0000
1000
0000
0001
1000
,
2002
3003
0000
0000
0001
0000
1000
0001
0100
0000
0010
0000
,
1000
0000
0001
0000
0011
0010
2020
3030
0000
0000
0001
1000
,
0220
0330
0000
0000
0010
0000
0100
0010
1000
0000
0001
0000
,
0100
0000
0010
0000
1010
0010
0101
0000
0010
0000
0100
0010
,
0220
0330
0000
0000
0100
0010
0010
0000
1000
0000
0001
0010
,
0010
0000
0100
0000
0011
0110
2200
0000
3300
0000
0100
0010
,
0200
0000
0300
0000
0000
0000
0101
0100
2200
0300
0010
0000
,
3002
0000
0000
0000
1000
0100
0100
0000
1000
0000
0010
1000
,
1000
0000
0100
0000
2000
0000
0000
0000
0000
0000
0000
0000
,
0000
0000
0000
0000
0000
0000
0000
0000
0000
0000
0000
0000
0000
0000
0000
0000
0000
0000
0000
0000
0000
0000
0000
0000
0000
0000
0000
0000
0000
0000
0000
0000
0000
0000
0000
0000
0000
0000
0000
0000
0000
0000
0000
0000
0000
0000
0000
0000
0000
0000
0000
0000
0000
0000
0000
0000
0000
0000
0000
0000
0000
0000
0000
0000
0000
0000
0000
0000
0000
0000
0000
0000
0000
0000
0000
0000
0000
0000
0000
0000
0000
0000
0000
0000
0000
0000
0000
0000
0000
0000
0000
0000
0000
0000
0000
0000
3003
0000
0000
0000
0000
0000
0000
0000
0000
0000
0000
0000
0000
0000
0000
0000
1100
0000
0000
0000
0000
0000
0000
0000
0000
0000
0000
0000
0000
0000
0000
0000
0011
0000
0000
0000
0000
0000
0000
0000
0000
0000
0000
0000
0000
0000
0000
0000
0000
0000
0000
0000
0000
0000
0000
0000
0000
0000
0000
0000
0000
0000
0000
0000
0110
0000
0000
0000
0000
0000
0000
0000
0000
0000
0000
0000
0000
0000
0000
0000
0000
0000
0000
0000
0000
0000
0000
0000
0000
0000
2002
0000
0000
0000
0000
0000
,
0000
0000
0000
3003
0000
0000
0000
0000
0000
0000
0000
0000
0000
0000
0000
0000
0000
0000
0000
0000
0000
0000
0000
0000
0000
0000
0000
0000
0000
0000
0000
0000
;

//---------------dance-single - Kreton----------------
#NOTES:
     dance-single:
     Kreton:
     Easy:
     4:
     0.217,0.273,0.000,0.148,0.230,158.000,0.000,17.000,0.000,0.000:
0000
0000
0000
0000
,
1000
0000
1000
0000
0000
0000
0001
0000
0001
0000
0000
0000
,
0100
0000
0100
0000
0000
0000
0010
0000
0010
0000
0000
0000
,
1000
0000
0001
0000
,
1000
0000
0000
0000
0010
0000
0010
0000
0000
0000
0000
0000
,
0100
0000
0010
0000
,
0100
0000
0001
0000
,
1000
0000
0100
0000
,
0001
0000
0000
0000
0100
0000
0100
0000
0000
0000
1000
0000
,
0001
0000
1000
0000
,
0010
0000
0000
0000
0100
0000
0010
0000
0000
0000
1000
0000
,
0001
0000
0100
0000
,
0010
0000
0000
0000
0001
0000
0100
0000
0000
0000
0010
0000
,
0100
0000
0010
0000
0000
0000
0100
0000
0000
0000
0000
0000
,
0010
0000
0000
0000
0100
0000
0010
0000
0000
0000
1000
0000
,
0010
0000
1000
0000
0000
0000
0100
0000
0000
0000
0000
0000
,
0010
0000
0000
0000
0100
0000
0010
0000
0000
0000
0001
0000
,
1000
0000
0100
0000
0000
0000
0010
0000
0000
0000
0000
0000
,
0100
0000
0000
0000
0010
0000
0100
0000
0010
0000
1000
0000
,
0010
0000
0000
0000
0100
0000
0010
0000
1000
0000
0001
0000
,
0010
0000
0000
0000
0100
0000
0010
0000
0000
0000
1000
0000
,
0001
0000
0100
0000
,
0010
0000
0000
0000
1000
0000
0001
0000
0000
0000
0100
0000
,
0010
0000
0010
0000
,
1000
0000
0000
0000
0000
0000
0010
0000
0000
0000
0100
0000
,
0010
0000
0100
0000
,
0001
0000
0000
0000
1000
0000
0100
0000
0000
0000
0000
0000
,
0010
0000
0100
0000
,
0001
0000
0000
0000
1000
0000
0001
0000
1000
0000
0000
0000
,
0010
0000
1000
0000
,
0001
0000
0000
0000
0010
0000
0100
0000
0010
0000
0000
0000
,
1000
0000
0010
0000
,
0100
0000
0000
0000
0001
0000
0010
0000
0001
0000
0000
0000
,
0100
0000
0001
0000
,
1000
0000
0000
0000
0100
0000
0001
0000
0100
0000
0000
0000
,
0010
0000
0000
0000
0000
0000
0100
0000
0000
0000
0010
0000
,
0100
0000
0000
0000
,
0000
0000
0000
0000
2000
0000
0000
0000
0000
0000
0000
0000
,
3002
0000
2003
0000
,
3002
0000
0000
0000
,
2003
0000
3002
0000
,
0203
0000
0320
0000
,
0032
0000
2003
0000
,
3020
0000
0000
0000
,
0032
0000
2003
0000
,
3200
0000
0000
0300
0010
0000
0100
0000
0010
0000
0000
0000
,
1000
0000
0010
0000
,
0100
0000
0000
0000
0010
0000
0001
0000
1000
0000
0000
0000
,
0100
0000
0010
0000
,
0001
0000
0000
0000
1000
0000
0001
0000
0100
0000
0000
0000
,
0010
0000
0100
0000
,
0001
0000
0000
0000
0100
0000
0010
0000
0100
0000
0010
0000
,
0100
0000
0010
0000
1000
0000
0001
0000
0100
0000
0010
0000
,
0200
0000
0000
0000
,
0300
0000
0002
0000
,
2003
0000
0000
0000
,
0000
0000
0001
0010
,
3001
0000
0000
0000
;

//---------------dance-single - Kreton----------------
#NOTES:
     dance-single:
     Kreton:
     Beginner:
     3:
     0.271,0.347,0.070,0.644,0.109,136.000,8.000,74.000,0.000,0.000:
0000
0000
0000
0000
,
1000
0000
0002
0003
0000
0000
1000
0000
0002
0003
0000
0000
,
1000
0000
0002
0003
0000
0000
1000
0000
0002
0003
0000
0000
,
1000
0000
0001
0000
,
0100
0000
0000
0000
0010
0000
0020
0030
0000
0000
0000
0000
,
1000
0000
0001
0000
,
0200
0000
0000
0000
0000
0000
0020
0330
0000
0000
0000
0000
,
1001
0000
0100
0000
,
1000
0000
0000
0000
0001
0000
0002
0003
0000
0000
0000
0000
,
0010
0000
0100
0000
,
2000
0000
0000
0000
0000
0000
0002
3003
0000
0000
0000
0000
,
1000
0000
0100
0000
,
0001
0000
0000
0000
0010
0000
0020
0030
0000
0000
0000
0000
,
0100
0000
0100
0000
,
0010
0000
0000
0000
0000
0000
0220
0330
0000
0000
0000
0000
,
1000
0000
1000
0000
,
0001
0000
0000
0000
1000
0000
0002
0003
0000
0000
0000
0000
,
1000
0000
0100
0000
,
2000
0000
0000
0000
0000
0000
0002
3003
0000
0000
0000
0000
,
2002
3003
0000
0000
0000
0000
2002
3003
0000
0000
0000
0000
,
2002
3003
0000
0000
0000
0000
1000
0000
0000
0000
0000
0000
,
1000
0000
0000
0000
0000
0000
0001
0000
0000
0000
2000
0000
,
0002
3003
0000
0000
0000
0000
0010
0000
0000
0000
0000
0000
,
1000
0000
0000
0000
0000
0000
0100
0000
0200
0000
0000
0000
,
0020
0330
0000
0000
0000
0000
0010
0000
0000
0000
0000
0000
,
0100
0000
0000
0000
0000
0000
1000
0000
0000
0000
0002
0000
,
2000
3003
0000
0000
0000
0000
0001
0000
0000
0000
0000
0000
,
0100
0000
0000
0000
0000
0000
0100
0000
0000
0000
0020
0000
,
0200
0330
0000
0000
0000
0000
0001
0000
0000
0000
0000
0000
,
1000
0000
0000
0000
0000
0000
0001
0000
0000
0000
2000
0000
,
0002
3003
0000
0000
0000
0000
0100
0000
0000
0000
0000
0000
,
0010
0000
0000
0000
0000
0000
0100
0000
0000
0000
0200
0000
,
0020
0330
0000
0000
0000
0000
1000
0000
0000
0000
0000
0000
,
0001
0000
0000
0000
0000
0000
0001
0000
0000
0000
2000
0000
,
0002
3003
0000
0000
0000
0000
0100
0000
0000
0000
0000
0000
,
0010
0000
0000
0000
0000
0000
0002
0000
0000
0003
0000
2000
,
0002
3003
0000
0000
0000
0000
1000
0000
0000
0000
0000
0000
,
1000
0000
0000
0000
0002
0000
2003
0000
0000
3000
0000
0000
,
0002
0000
0000
0003
0000
0000
0020
0000
0000
0030
0100
0000
,
0200
0300
2000
3000
,
0200
0300
0020
0030
,
0002
0000
0000
0003
2000
0000
3002
0000
0000
0003
0000
0000
,
0020
0000
0000
0030
0000
0000
0200
0000
0000
0300
1000
0000
,
2000
3000
2000
3000
,
0200
0300
0020
0000
,
0002
0030
1003
0000
,
0001
0000
0000
0000
0000
0000
0100
0000
0000
0000
2000
0000
,
0020
3030
0000
0000
0000
0000
1000
0000
0000
0000
0000
0000
,
0001
0000
0000
0000
0000
0000
0020
0000
0030
0000
0002
0000
,
0200
0303
0000
0000
0000
0000
0001
0000
0000
0000
0000
0000
,
1000
0000
0000
0000
0000
0000
0010
0000
0000
0000
2000
0000
,
0200
3300
0000
0000
0000
0000
0001
0000
0000
0000
0000
0000
,
1000
0000
0000
0000
0000
0000
0100
0000
0000
0000
2000
0000
,
0200
3300
0000
0000
0000
0000
2002
3003
0000
0000
0000
0000
,
2002
3003
0000
0000
0000
0000
2002
3003
0000
0000
0000
0000
,
2000
3000
0000
0000
0002
0000
0000
0000
0000
0000
0000
0000
,
0000
0000
0003
1000
,
0001
0000
0000
0000
;
